<?xml version="1.0" standalone="no"?>
<!DOCTYPE svg PUBLIC "-//W3C//DTD SVG 1.1//EN" "http://www.w3.org/Graphics/SVG/1.1/DTD/svg11.dtd" >
<svg xmlns="http://www.w3.org/2000/svg">
<metadata>Generated by IcoMoon</metadata>
<defs>
<font id="ngd-icofont" horiz-adv-x="512">
<font-face units-per-em="512" ascent="480" descent="-32" />
<missing-glyph horiz-adv-x="512" />
<glyph unicode="&#x20;" horiz-adv-x="256" d="" />
<glyph unicode="&#xe900;" glyph-name="arrow-down" horiz-adv-x="470" d="M234.694-19.928c5.561 0 12.945 3.363 16.528 6.776l204.279 192.256c9.28 8.976 10.356 23.518 0.938 33.983-8.42 9.356-24.841 9.589-33.984 0.938l-163.724-154.33v384.202c0 13.273-10.759 24.033-24.032 24.033s-24.034-10.759-24.034-24.033v-384.202l-163.723 154.331c-9.142 8.651-25.16 8.036-33.983-0.938-9.315-9.475-8.486-25.144 0.938-33.983l204.278-192.256c5.541-5.649 10.877-6.681 16.52-6.776z" />
<glyph unicode="&#xe901;" glyph-name="arrow-left" horiz-adv-x="563" d="M24.873 224.059c0-5.85 3.538-13.619 7.129-17.388l202.264-214.913c9.444-9.763 24.743-10.894 35.753-0.986 9.844 8.858 10.088 26.134 0.986 35.753l-162.364 172.246h404.202c13.964 0 25.284 11.32 25.284 25.284s-11.319 25.285-25.284 25.285h-404.202l162.365 172.246c9.101 9.618 8.454 26.469-0.986 35.753-9.968 9.8-26.453 8.928-35.753-0.986l-202.264-214.912c-5.943-5.829-7.029-11.444-7.129-17.38z" />
<glyph unicode="&#xe902;" glyph-name="arrow-right" horiz-adv-x="563" d="M538.126 223.94c0 5.851-3.538 13.619-7.129 17.388l-202.264 214.913c-9.443 9.763-24.743 10.895-35.752 0.986-9.843-8.858-10.088-26.134-0.986-35.753l162.364-172.246h-404.202c-13.964 0-25.284-11.32-25.284-25.284s11.32-25.284 25.284-25.284h404.202l-162.365-172.246c-9.101-9.618-8.454-26.469 0.986-35.752 9.968-9.8 26.452-8.928 35.752 0.986l202.264 214.912c5.943 5.829 7.029 11.443 7.129 17.38z" />
<glyph unicode="&#xe903;" glyph-name="arrow-up" horiz-adv-x="470" d="M234.808 471.776c-5.649 0-13.149-3.416-16.788-6.883l-207.502-195.288c-9.427-9.118-10.52-23.889-0.953-34.519 8.553-9.503 25.233-9.74 34.52-0.952l166.306 156.765v-390.262c0-13.483 10.929-24.411 24.411-24.411s24.412 10.928 24.412 24.411v390.262l166.305-156.765c9.286-8.787 25.557-8.163 34.519 0.952 9.462 9.625 8.62 25.54-0.952 34.519l-207.501 195.288c-5.629 5.738-11.048 6.787-16.78 6.883z" />
<glyph unicode="&#xe904;" glyph-name="arrow2-down" horiz-adv-x="878" d="M438.687 90.652c6.113 0 14.231 3.698 18.171 7.449l224.566 211.349c10.202 9.868 11.384 25.854 1.031 37.358-9.256 10.285-27.308 10.541-37.36 1.031l-207.692-194.786-205.112 194.786c-10.049 9.51-27.659 8.834-37.357-1.031-10.24-10.416-9.328-27.641 1.031-37.358l224.565-211.349c6.091-6.211 11.957-7.344 18.161-7.449z" />
<glyph unicode="&#xe905;" glyph-name="arrow2-left" horiz-adv-x="299" d="M16.399 224.061c0-6.090 3.683-14.177 7.421-18.102l210.561-223.729c9.831-10.163 25.757-11.341 37.218-1.026 10.247 9.221 10.502 27.207 1.026 37.22l-194.060 206.919 194.060 204.347c9.474 10.012 8.801 27.555-1.026 37.219-10.377 10.202-27.538 9.294-37.219-1.026l-210.561-223.727c-6.186-6.068-7.317-11.912-7.421-18.093z" />
<glyph unicode="&#xe906;" glyph-name="arrow2-right" horiz-adv-x="299" d="M283.618 223.938c0 6.16-3.726 14.339-7.506 18.309l-212.964 226.283c-9.943 10.279-26.051 11.471-37.644 1.038-10.364-9.327-10.621-27.517-1.038-37.644l196.275-209.281-196.275-206.68c-9.582-10.127-8.902-27.87 1.038-37.644 10.496-10.318 27.851-9.4 37.644 1.038l212.964 226.281c6.257 6.137 7.401 12.048 7.506 18.299z" />
<glyph unicode="&#xe907;" glyph-name="arrow2-up" horiz-adv-x="878" d="M438.812 357.348c-6.113 0-14.231-3.698-18.171-7.449l-224.566-211.349c-10.202-9.868-11.383-25.854-1.031-37.358 9.256-10.285 27.309-10.541 37.36-1.031l207.692 194.786 205.112-194.786c10.049-9.51 27.659-8.834 37.357 1.031 10.24 10.416 9.328 27.641-1.031 37.358l-224.565 211.349c-6.091 6.211-11.957 7.344-18.161 7.448z" />
<glyph unicode="&#xe908;" glyph-name="bullet" d="M0 480h512v-512h-512v512z" />
<glyph unicode="&#xe909;" glyph-name="close" d="M12.3-19.7c16.757-16.757 33.149-16.392 49.177 1.093l194.523 192.337 194.523-192.337c16.029-17.485 32.421-17.85 49.178-1.093s16.393 33.149-1.093 49.177l-192.338 194.522 192.337 194.523c17.485 16.028 17.85 32.42 1.093 49.177s-33.149 16.392-49.178-1.093l-194.523-192.337-194.523 192.337c-16.028 17.486-32.42 17.85-49.177 1.093s-16.392-33.149 1.093-49.177l192.337-194.523-192.337-194.523c-17.485-16.028-17.849-32.421-1.093-49.177z" />
<glyph unicode="&#xe90a;" glyph-name="email" horiz-adv-x="656" d="M605.091 26.182v279.272c-7.758-8.728-16.121-16.728-25.091-24-64.97-49.94-116.606-90.909-154.909-122.909-12.363-10.425-22.424-18.546-30.182-24.363s-18.243-11.697-31.454-17.637c-13.212-5.94-25.637-8.909-37.273-8.909h-0.727c-11.637 0-24.060 2.969-37.273 8.909s-23.697 11.818-31.454 17.637c-7.757 5.818-17.818 13.94-30.182 24.363-38.303 32-89.939 72.969-154.909 122.909-8.969 7.273-17.334 15.272-25.091 24v-279.272c0-3.151 1.151-5.879 3.455-8.182s5.031-3.454 8.182-3.454h535.273c3.152 0 5.879 1.151 8.182 3.454s3.455 5.031 3.455 8.182zM605.091 408.363v8.909c0 1.091-0.061 2.667-0.182 4.728s-0.485 3.575-1.091 4.546c-0.606 0.969-1.273 2.060-2 3.273s-1.818 2.121-3.273 2.728c-1.455 0.606-3.152 0.909-5.091 0.909h-535.273c-3.151 0-5.879-1.151-8.182-3.454s-3.455-5.030-3.455-8.182c0-40.727 17.818-75.151 53.455-103.273 46.788-36.849 95.394-75.272 145.818-115.272 1.454-1.212 5.697-4.788 12.728-10.728s12.606-10.485 16.728-13.637c4.122-3.151 9.515-6.969 16.182-11.454s12.788-7.818 18.363-10c5.576-2.182 10.788-3.273 15.637-3.273h0.727c4.849 0 10.060 1.091 15.637 3.273s11.697 5.515 18.363 10c6.666 4.485 12.060 8.303 16.182 11.454s9.697 7.697 16.728 13.637c7.031 5.94 11.272 9.515 12.728 10.728 50.425 40 99.030 78.424 145.818 115.272 13.091 10.425 25.273 24.424 36.545 42s16.909 33.515 16.909 47.818zM651.636 421.818v-395.637c0-16-5.697-29.697-17.091-41.091s-25.091-17.091-41.091-17.091h-535.273c-16 0-29.697 5.697-41.091 17.091s-17.091 25.091-17.091 41.091v395.637c0 16 5.697 29.697 17.091 41.091s25.091 17.091 41.091 17.091h535.273c16 0 29.697-5.697 41.091-17.091s17.091-25.091 17.091-41.091z" />
<glyph unicode="&#xe90b;" glyph-name="facebook" d="M448.661 473.561c15.534 0 28.707-5.498 39.543-16.514s16.273-24.11 16.273-39.285v-388.473c0-15.154-5.438-28.168-16.272-39.005s-24.009-16.233-39.543-16.233h-110.51v193.946h55.255l15.713 68.814h-70.968v47.143c0 9.376 2.879 18.313 8.656 26.81 5.778 8.477 15.534 12.734 29.267 12.734h33.044v72.592h-49.837c-35.404 0-61.673-9.577-78.844-28.73-17.132-19.132-25.727-43.683-25.727-73.672v-56.878h-55.255v-68.815h55.255v-193.947h-193.932c-15.532 0-28.707 5.398-39.542 16.233s-16.272 23.851-16.272 39.005v388.473c0 15.173 5.438 28.269 16.272 39.284s24.009 16.514 39.542 16.514l387.883 0.002z" />
<glyph unicode="&#xe90c;" glyph-name="instagram" d="M495.32 463.077c11.106-11.29 16.68-24.711 16.68-40.264v-398.155c0-15.532-5.574-28.87-16.678-39.978s-24.609-16.637-40.531-16.637l-397.581-0.002c-15.921 0-29.424 5.533-40.531 16.637s-16.678 24.445-16.678 39.978v398.155c0 15.552 5.574 28.974 16.678 40.264s24.609 16.925 40.531 16.925h397.581c15.921 0.002 29.423-5.634 40.53-16.923zM257.272 394.413c-46.811 0-52.68-0.197-71.064-1.038-18.347-0.838-30.876-3.751-41.839-8.012-11.335-4.404-20.948-10.298-30.529-19.88s-15.476-19.195-19.88-30.529c-4.263-10.964-7.176-23.493-8.012-41.839-0.84-18.384-1.037-24.252-1.037-71.063 0-46.813 0.198-52.681 1.037-71.065 0.837-18.346 3.749-30.875 8.012-41.839 4.404-11.334 10.297-20.947 19.88-30.529s19.194-15.476 30.529-19.88c10.963-4.26 23.492-7.173 41.839-8.012 18.384-0.839 24.254-1.038 71.064-1.038s52.681 0.199 71.065 1.038c18.346 0.838 30.875 3.751 41.839 8.012 11.335 4.404 20.947 10.298 30.529 19.88s15.476 19.195 19.88 30.529c4.262 10.964 7.175 23.493 8.012 41.839 0.839 18.384 1.036 24.252 1.036 71.065 0 46.811-0.197 52.679-1.036 71.063-0.837 18.346-3.75 30.875-8.012 41.84-4.404 11.334-10.298 20.947-19.88 30.529s-19.194 15.476-30.529 19.88c-10.963 4.261-23.493 7.174-41.839 8.012-18.384 0.84-24.254 1.038-71.065 1.038zM257.272 363.356c46.023 0 51.473-0.175 69.649-1.004 16.805-0.767 25.931-3.576 32.005-5.935 8.046-3.127 13.788-6.863 19.819-12.893 6.033-6.032 9.768-11.773 12.894-19.819 2.36-6.074 5.168-15.201 5.935-32.005 0.829-18.176 1.005-23.627 1.005-69.649 0-46.024-0.176-51.474-1.005-69.649-0.767-16.805-3.576-25.933-5.935-32.007-3.125-8.044-6.861-13.786-12.894-19.818-6.031-6.031-11.772-9.767-19.818-12.893-6.074-2.36-15.2-5.169-32.005-5.935-18.173-0.83-23.623-1.005-69.649-1.005s-51.476 0.175-69.649 1.005c-16.804 0.765-25.931 3.575-32.005 5.935-8.046 3.127-13.787 6.861-19.819 12.893s-9.766 11.774-12.893 19.818c-2.36 6.074-5.168 15.201-5.936 32.007-0.828 18.175-1.004 23.625-1.004 69.649 0 46.023 0.176 51.473 1.004 69.649 0.767 16.804 3.576 25.931 5.936 32.005 3.127 8.046 6.863 13.786 12.893 19.819 6.031 6.031 11.773 9.766 19.819 12.893 6.073 2.36 15.201 5.168 32.005 5.935 18.176 0.829 23.626 1.004 69.649 1.004zM257.272 310.56c-48.882 0-88.51-39.628-88.51-88.51 0-48.884 39.627-88.51 88.51-88.51s88.51 39.627 88.51 88.51c0 48.882-39.627 88.51-88.51 88.51zM369.964 314.058c0 11.423-9.26 20.683-20.683 20.683s-20.683-9.26-20.683-20.683c0-11.423 9.261-20.683 20.683-20.683 11.423 0 20.683 9.261 20.683 20.683zM257.272 164.596c-31.731 0-57.454 25.723-57.454 57.454s25.724 57.454 57.454 57.454c31.731 0 57.454-25.723 57.454-57.454s-25.723-57.454-57.454-57.454z" />
<glyph unicode="&#xe90d;" glyph-name="magnifier" d="M373.333 168l-5.333-9.334 144-145.334-45.333-45.333-144 145.333-9.334-6.666c-35.555-22.223-72.444-33.334-110.666-33.334-56 0-103.778 20-143.333 60s-59.334 88-59.334 144c0 56 19.777 103.778 59.334 143.333s87.333 59.334 143.333 59.334c56 0 103.778-19.777 143.333-59.334s59.333-87.333 59.333-143.333c0-39.112-10.666-75.555-32-109.334zM316 390.666c-31.111 31.111-68.888 46.666-113.333 46.666s-82.222-15.555-113.334-46.666c-31.111-31.111-46.666-68.888-46.666-113.334s15.556-82.222 46.666-113.333c31.111-31.111 68.889-46.666 113.334-46.666s82.222 15.555 113.333 46.666c32 32 48 69.778 48 113.334s-16 81.333-48 113.334z" />
<glyph unicode="&#xe90e;" glyph-name="menue" horiz-adv-x="683" d="M89.983 480h502.702v-74.475h-502.702v74.475zM89.983 312.433h502.702v-74.466h-502.702v74.466zM89.983 144.865h502.702v-74.466h-502.702v74.466z" />
<glyph unicode="&#xe90f;" glyph-name="phone" d="M424.526 446.004v0l47.389-47.389c2.747-2.747 4.636-5.581 5.666-8.499s1.373-6.439 1.031-10.56c-0.344-4.464-1.546-9.873-3.606-16.225s-4.979-13.307-8.757-20.862c-1.031-1.717-4.979-8.156-11.848-19.316s-15.968-24.983-27.3-41.466c-10.302-15.11-20.346-28.931-30.134-41.465s-19.058-24.038-27.815-34.512c-8.757-10.474-16.913-19.832-24.468-28.073s-14.423-15.453-20.604-21.635c-10.989-10.989-22.235-21.462-33.739-31.421s-22.664-19.317-33.481-28.073c-10.817-8.757-21.205-16.74-31.163-23.952s-19.059-13.736-27.3-19.574c-16.483-11.332-30.305-20.433-41.465-27.3s-17.6-10.817-19.316-11.848c-8.242-4.121-15.71-7.212-22.407-9.272s-12.448-3.091-17.256-3.091c-3.434 0-6.439 0.515-9.014 1.546s-5.065 2.747-7.469 5.151l-47.389 47.389 90.658 67.993c1.374 1.031 2.576 1.717 3.606 2.060s1.717 0.515 2.060 0.515l47.389-46.874 23.179 16.998c18.543 13.736 36.143 27.644 52.798 41.723s32.022 27.987 46.102 41.724h0.515v0.515c13.736 14.079 27.644 29.447 41.724 46.101s27.987 34.254 41.724 52.798l16.998 23.179-46.875 47.389c0 0.344 0.257 1.030 0.772 2.061s1.116 2.232 1.803 3.606l67.993 90.658zM421.951 480c-4.121 0-8.070-0.858-11.848-2.575s-7.039-4.464-9.787-8.242l-70.569-94.779c-5.495-7.898-8.499-16.14-9.014-24.725s2.49-16.14 9.014-22.665l27.815-28.33c-11.332-15.109-23.781-30.906-37.345-47.389s-28.073-32.452-43.526-47.904c-15.453-15.453-31.421-29.962-47.904-43.526s-32.279-26.012-47.389-37.345l-28.331 27.815c-3.090 3.091-6.439 5.409-10.044 6.954s-7.469 2.318-11.59 2.318c-4.121 0-8.413-0.772-12.877-2.318s-8.757-3.863-12.877-6.954l-94.779-70.569c-7.899-5.495-11.504-13.135-10.817-22.922s4.293-17.942 10.817-24.467l47.389-47.389c5.838-5.838 12.105-10.044 18.801-12.62s13.65-3.863 20.861-3.863c8.585 0 17.513 1.546 26.785 4.636s18.716 7.039 28.33 11.848c0 0 5.923 3.52 17.771 10.56s27.129 16.998 45.844 29.876c18.715 12.877 39.577 28.416 62.585 46.616s45.673 38.461 67.993 60.782c22.321 22.321 42.582 44.986 60.782 67.993s33.739 43.87 46.616 62.585c12.877 18.715 22.836 33.996 29.876 45.844s10.56 17.771 10.56 17.771c8.928 17.17 14.423 33.997 16.483 50.48s-3.434 31.25-16.483 44.299l-47.389 47.389c-3.434 3.434-7.383 6.096-11.848 7.984s-9.1 2.833-13.908 2.833z" />
<glyph unicode="&#xe910;" glyph-name="twitter" d="M495.32 463.077c11.106-11.29 16.68-24.711 16.68-40.264v-398.155c0-15.532-5.574-28.87-16.678-39.978s-24.609-16.637-40.531-16.637l-397.581-0.002c-15.921 0-29.424 5.533-40.531 16.637s-16.678 24.445-16.678 39.978v398.155c0 15.552 5.574 28.974 16.678 40.264s24.609 16.925 40.531 16.925h397.581c15.921 0.002 29.423-5.634 40.53-16.923zM445.715 341.239c-13.817-6.168-28.674-10.337-44.263-12.216 15.912 9.602 28.127 24.8 33.882 42.904-14.89-8.89-31.38-15.34-48.945-18.815-14.054 15.070-34.089 24.488-56.257 24.488-42.572 0-77.075-34.721-77.075-77.55 0-6.081 0.674-12 1.996-17.673-64.062 3.229-120.857 34.114-158.873 81.029-6.635-11.45-10.436-24.769-10.436-38.983 0-26.91 13.602-50.642 34.29-64.556-12.632 0.397-24.519 3.888-34.915 9.7-0.010-0.327-0.010-0.649-0.010-0.972 0-37.58 26.57-68.919 61.829-76.048-6.462-1.771-13.272-2.712-20.3-2.712-4.972 0-9.793 0.473-14.507 1.385 9.816-30.81 38.274-53.234 72.010-53.863-26.402-20.803-59.63-33.195-95.746-33.195-6.218 0-12.356 0.37-18.391 1.081 34.123-22.005 74.634-34.842 118.166-34.842 141.77 0 219.287 118.173 219.287 220.661 0 3.361-0.074 6.7-0.217 10.024 15.053 10.942 28.12 24.598 38.459 40.153l0.014 0.002z" />
<glyph unicode="&#xe911;" glyph-name="youtube" d="M495.32 463.077c11.106-11.29 16.68-24.711 16.68-40.264v-398.155c0-15.532-5.574-28.87-16.678-39.978s-24.609-16.637-40.531-16.637l-397.581-0.002c-15.921 0-29.424 5.533-40.531 16.637s-16.678 24.445-16.678 39.978v398.155c0 15.552 5.574 28.974 16.678 40.264s24.609 16.925 40.531 16.925h397.581c15.921 0.002 29.423-5.634 40.53-16.923zM429.663 203.030c-0.467 6.519-1.857 12.401-4.182 17.647-2.337 5.233-5.598 9.947-9.793 14.128-4.182 3.974-8.896 7.051-14.143 9.258-5.234 2.22-11.117 3.558-17.637 4.025-6.065 0.233-13.923 0.468-23.585 0.701s-20.26 0.403-31.793 0.519c-11.519 0.117-23.637 0.233-36.338 0.351-12.688 0.117-25.195 0.169-37.546 0.169-12.104 0-24.74-0.052-37.91-0.169-13.156-0.117-25.78-0.233-37.897-0.351s-23.169-0.286-33.183-0.519c-10.026-0.233-18.052-0.468-24.104-0.701-6.532-0.468-12.403-1.805-17.65-4.025-5.234-2.208-9.948-5.285-14.143-9.258-4.195-4.181-7.454-8.895-9.779-14.128-2.338-5.246-3.728-11.128-4.195-17.647-0.701-13.037-1.221-22.763-1.572-29.164s-0.532-12.868-0.532-19.387c0-6.752 0.182-15.024 0.532-24.801s0.87-21.192 1.572-34.229c0.468-6.519 1.857-12.401 4.195-17.634 2.325-5.246 5.585-9.959 9.779-14.154 4.195-3.947 8.909-7.038 14.143-9.259 5.247-2.207 11.117-3.545 17.65-4.012 6.052-0.233 14.078-0.467 24.104-0.688 10.013-0.233 21.065-0.416 33.183-0.533s24.74-0.233 37.897-0.351c13.169-0.117 25.805-0.169 37.91-0.169 12.351 0 24.857 0.052 37.546 0.169 12.702 0.117 24.819 0.233 36.338 0.351 11.533 0.117 22.13 0.298 31.793 0.533 9.663 0.221 17.519 0.454 23.585 0.688 6.519 0.467 12.403 1.805 17.637 4.012 5.247 2.221 9.961 5.311 14.143 9.259 4.195 4.194 7.454 8.908 9.793 14.154 2.325 5.233 3.714 11.115 4.182 17.634 0.467 10.712 0.883 21.010 1.234 30.918 0.351 9.894 0.519 19.257 0.519 28.113 0 8.622-0.169 16.18-0.519 22.711-0.351 6.505-0.767 15.127-1.234 25.841zM409.066 138.065v-11.18h-44.728v-22.361c0-3.026 1.117-5.635 3.325-7.856 2.208-2.207 4.831-3.311 7.858-3.311s5.649 1.103 7.858 3.311c2.208 2.221 3.325 4.83 3.325 7.856v11.18h22.364v-11.18c0-9.31-3.273-17.219-9.793-23.75-6.519-6.519-14.442-9.778-23.753-9.778s-17.234 3.26-23.753 9.778c-6.519 6.531-9.779 14.44-9.779 23.75v44.721c0 9.31 3.26 17.231 9.779 23.75s14.442 9.778 23.753 9.778c9.312 0 17.234-3.26 23.753-9.778s9.793-14.44 9.793-23.75v-11.18zM375.52 160.413c-3.026 0-5.649-1.103-7.858-3.311-2.208-2.221-3.325-4.83-3.325-7.856v-11.18h22.364v11.18c0 3.026-1.117 5.635-3.325 7.856-2.208 2.207-4.831 3.311-7.858 3.311zM341.987 383.965v-88.026c-4.896-3.96-9.844-5.947-14.858-5.947-5 0-7.507 7.337-7.507 22.010v71.964h-22.351v-76.495c0.234-9.324 2.675-19.153 7.338-29.515 4.649-10.362 17.104-8.791 37.377 4.714v-10.479h22.351v111.776h-22.351zM319.623 93.709c0-11.647-4.831-18.803-14.493-21.49-9.663-2.675-19.74 0.533-30.221 9.609v-10.829h-22.351v134.123h22.351v-36.32c11.182 11.18 21.429 15.361 30.74 12.57s13.974-9.778 13.974-20.958v-66.704zM274.908 149.246v-58.68c3.728-3.74 8.389-5.596 13.974-5.596 5.598 0 8.389 2.792 8.389 8.389v52.395c0 5.584-2.337 8.959-6.987 10.115-4.663 1.168-9.779-1.039-15.377-6.623zM241.375 383.965c-9.312 0-17.234-3.273-23.754-9.791s-9.78-14.426-9.78-23.75v-44.708c0-9.31 3.26-17.231 9.78-23.75s14.442-9.778 23.754-9.778c9.312 0 17.234 3.26 23.753 9.778s9.779 14.44 9.779 23.75v44.708c0 9.324-3.26 17.232-9.779 23.75s-14.442 9.791-23.754 9.791zM241.375 361.605c3.026 0 5.649-1.104 7.857-3.324 2.208-2.208 3.325-4.831 3.325-7.856v-44.708c0-3.025-1.117-5.649-3.325-7.856s-4.831-3.311-7.857-3.311c-3.026 0-5.649 1.104-7.857 3.311s-3.325 4.831-3.325 7.856v44.708c0 3.026 1.117 5.649 3.325 7.856 2.208 2.221 4.831 3.324 7.857 3.324zM230.193 70.998h-22.351v10.479c-21.195-11.868-33.897-14.206-38.078-6.986-4.195 7.219-6.403 15.491-6.637 24.801v61.121h22.351v-61.471c0-6.752 2.506-10.128 7.506-10.128 5.013 0 9.961 1.986 14.857 5.934v65.666h22.351v-89.416zM206.79 406.313h-30.74l-24.104-47.85-24.104 47.85h-30.74l43.313-75.794h0.351v-58.329h22.364v58.329h0.338l43.326 75.794zM140.763 70.998h-22.351v111.776h-22.364v22.348h67.079v-22.348h-22.364v-111.776z" />
<glyph unicode="&#xe912;" glyph-name="check1" horiz-adv-x="530" d="M504.971 461.902c9.658 0.478 18.616-5.2 22.596-14.32s2.171-19.832-4.561-27.014c-65.001-70.392-204.478-227.349-270.346-298.678-8.73-9.581-23.233-10.255-32.758-1.524l-100.115 91.433c-6.312 5.784-9.163 14.615-7.479 23.165s7.647 15.521 15.643 18.286c7.996 2.766 16.81 0.906 23.122-4.879l82.815-75.622c68.882 75.168 192.978 214.101 255.071 281.344 4.154 4.659 9.897 7.459 16.011 7.81zM418.171 422.092c-15.274-16.479-32.692-35.714-34.214-34.504-35.244 28.040-79.728 44.743-127.958 44.743-113.751 0-206.664-92.913-206.664-208.331s92.913-208.331 206.664-208.331c113.751 0 206.664 92.913 206.664 208.331 0 21.048-3.090 41.347-8.832 60.471-0.587 1.954 19.303 24.548 35.985 43.925 14.257-31.882 22.184-67.214 22.184-104.397 0-141.385-114.615-256-256-256s-256 114.615-256 256c0 141.385 114.615 256 256 256 61.545 0 118.017-21.718 162.171-57.908z" />
<glyph unicode="&#xe913;" glyph-name="check2" horiz-adv-x="530" d="M418.171 422.092c-15.274-16.479-32.692-35.714-34.214-34.504-35.244 28.040-79.728 44.743-127.958 44.743-113.751 0-206.664-92.913-206.664-208.331s92.913-208.331 206.664-208.331c113.751 0 206.664 92.913 206.664 208.331 0 21.048-3.090 41.347-8.832 60.471-0.587 1.954 19.303 24.548 35.985 43.925 14.257-31.882 22.184-67.214 22.184-104.397 0-141.385-114.615-256-256-256s-256 114.615-256 256c0 141.385 114.615 256 256 256 61.545 0 118.017-21.718 162.171-57.908z" />
<glyph unicode="&#xe914;" glyph-name="check3" horiz-adv-x="530" d="M504.971 461.902c-6.115-0.35-11.858-3.151-16.011-7.809-62.093-67.242-186.19-206.175-255.071-281.344l-82.816 75.622c-6.312 5.785-15.126 7.644-23.122 4.879s-13.959-9.737-15.643-18.286c-1.684-8.55 1.167-17.381 7.479-23.165l100.115-91.433c9.525-8.731 24.028-8.057 32.758 1.524 65.868 71.329 205.345 228.286 270.346 298.678 6.732 7.183 8.54 17.894 4.561 27.014s-12.938 14.798-22.596 14.32z" />
<glyph unicode="&#xe915;" glyph-name="calendar" d="M469.322 288c0.007 49.279 0.010 85.247 0.010 85.247 0 0.015-25.49 0.027-64.007 0.038v-21.223c0-11.817-9.47-21.396-21.336-21.396-11.784 0-21.336 9.569-21.336 21.396v21.233c-65.168 0.013-148.21 0.023-213.358 0.029v-21.262c0-11.817-9.47-21.396-21.336-21.396-11.784 0-21.336 9.569-21.336 21.396v21.266c-38.459 0.003-63.902 0.005-63.902 0.005-0.022 0-0.041-36.010-0.056-85.333h426.656zM469.334 245.333h-426.628c-0.026-104.361-0.038-234.58-0.038-234.58 0-0.061 426.579-0.087 426.579-0.087 0.041 0 0.071 130.291 0.089 234.667zM405.334 416h63.894c23.623 0 42.772-19.106 42.772-42.753v-362.493c0-23.612-19.137-42.753-42.772-42.753h-426.455c-23.622 0-42.772 19.106-42.772 42.753v362.493c0 23.612 19.137 42.753 42.772 42.753h63.894v42.604c0 11.816 9.469 21.396 21.334 21.396 11.782 0 21.334-9.568 21.334-21.396v-42.604h213.333v42.604c0 11.816 9.469 21.396 21.334 21.396 11.782 0 21.334-9.568 21.334-21.396v-42.604z" />
<glyph unicode="&#xe916;" glyph-name="fax" horiz-adv-x="640" d="M137.309 79.709c0-14.139-11.462-25.6-25.6-25.6s-25.6 11.462-25.6 25.6c0 14.139 11.462 25.6 25.6 25.6s25.6-11.462 25.6-25.6zM539.266 340.363h-17.957v139.637h-409.6v-139.637h-17.957c-51.694 0-93.752-42.049-93.752-93.752v-184.86c0-51.693 42.059-93.752 93.752-93.752h445.505c51.702 0 93.761 42.058 93.761 93.752v184.86c0 51.702-42.058 93.752-93.752 93.752zM158.255 433.454h316.509v-176.873h-316.509v176.873zM586.472 61.752c0-25.963-21.244-47.197-47.207-47.197h-445.514c-25.963-0.010-47.206 21.234-47.206 47.197v184.86c0 25.963 21.244 47.207 47.206 47.207h17.957v-83.782h409.6v83.782h17.957c25.963 0 47.207-21.243 47.207-47.207v-184.86z" />
<glyph unicode="&#xe917;" glyph-name="off" horiz-adv-x="878" d="M0 224c0 141.385 114.746 256 256.231 256h365.253c141.513 0 256.231-114.903 256.231-256 0-141.385-114.746-256-256.231-256h-365.252c-141.512 0-256.231 114.903-256.231 256zM237.714 41.143c100.989 0 182.857 81.868 182.857 182.857s-81.868 182.857-182.857 182.857c-100.989 0-182.857-81.868-182.857-182.857s81.868-182.857 182.857-182.857zM621.715 272.762l-97.524 97.524-48.762-48.762 97.524-97.524-97.524-97.524 48.762-48.762 97.524 97.524 97.524-97.524 48.762 48.762-97.524 97.524 97.524 97.524-48.762 48.762-97.524-97.524z" />
<glyph unicode="&#xe918;" glyph-name="on" horiz-adv-x="878" d="M0 224c0 141.385 114.746 256 256.231 256h365.253c141.513 0 256.231-114.903 256.231-256 0-141.385-114.746-256-256.231-256h-365.252c-141.512 0-256.231 114.903-256.231 256zM640 41.143c100.989 0 182.857 81.868 182.857 182.857s-81.868 182.857-182.857 182.857c-100.989 0-182.857-81.868-182.857-182.857s81.868-182.857 182.857-182.857zM135.574 286.432l-51.72-51.72 138.607-138.606 171.81 214.764-57.115 45.692-120.76-150.951-80.822 80.822z" />
<glyph unicode="&#xe919;" glyph-name="position" horiz-adv-x="384" d="M183.275 387.39c23.034 0 44.108-9.208 59.22-24.083 15.194-14.795 24.75-35.673 24.75-58.604 0.080-22.93-9.556-43.726-24.75-58.604s-36.186-24.083-59.22-24.083c-23.030 0-44.106 9.205-59.299 24.083s-24.751 35.673-24.751 58.604c0 22.93 9.559 43.726 24.751 58.604s36.266 24.083 59.299 24.083zM217.909 271.474c8.831 8.639 14.1 20.237 14.1 33.154 0 12.996-5.269 24.593-14.1 33.23-8.831 8.561-20.997 13.929-34.631 13.929s-25.8-5.292-34.631-13.929c-8.756-8.636-14.1-20.31-14.1-33.23s5.269-24.517 14.1-33.154c8.831-8.56 20.997-13.929 34.631-13.929s25.8 5.293 34.631 13.929zM185.837 480h0.006c51.094 0 97.594-20.31 131.302-53.402 33.625-32.846 54.618-78.546 54.618-128.839 0-9.423-1.477-19.001-3.444-28.341s-4.594-18.349-7.135-26.293c-5.168-15.888-10.171-27.521-10.334-27.848-5.824-13.435-15.995-32.846-23.704-45.377l-76.764-124.413c-7.135-11.55-18.7-30.308-25.834-41.855l-11.892-19.248c-2.787-4.502-6.394-8.517-10.988-11.547-4.511-3.033-10.088-4.834-15.829-4.834-5.744-0.080-11.401 1.805-15.912 4.834-4.59 3.030-8.198 7.042-10.988 11.63l-11.809 19.248c-7.054 11.547-18.619 30.389-25.671 41.935l-76.434 124.58c-7.301 11.877-18.372 31.041-25.097 43.247-0.657 1.392-19.849 36.038-19.93 84.363 0 50.292 20.993 95.993 54.618 128.839 33.624 32.928 80.124 53.322 131.219 53.322zM330.961 275.088h0.006c1.661 7.673 2.611 15.11 2.452 21.106 0 40.139-16.466 76.514-43.228 102.979-26.762 26.462-63.656 42.852-104.512 42.852s-77.75-16.387-104.512-42.852c-26.759-26.543-43.228-62.844-43.228-102.979-0.081-37.096 14.805-66.123 15.359-67 6.099-11.193 16.787-29.901 23.437-40.776l73.791-121.608c6.81-11.272 17.976-29.663 24.782-40.935l10.37-17.031 10.37 17.031c6.887 11.274 18.053 29.586 24.941 40.857l74.029 121.287c6.253 10.235 16.151 29.342 20.901 40.376l0.077 0.16 0.315 0.721c0.238 0.719 0.712 1.68 1.188 2.958 1.027 2.48 2.452 6.237 4.036 10.635 3.167 8.876 6.971 20.709 9.424 32.222z" />
<glyph unicode="&#xe91a;" glyph-name="check4" horiz-adv-x="530" d="M256 15.669c113.75 0 206.664 92.913 206.664 208.331s-92.913 208.331-206.664 208.331c-113.75 0-206.664-92.913-206.664-208.331s92.913-208.331 206.664-208.331zM256-32c-141.385 0-256 114.615-256 256s114.615 256 256 256c141.385 0 256-114.615 256-256s-114.615-256-256-256z" />
<glyph unicode="&#xe91b;" glyph-name="minus" d="M0 256v-64h512v64z" />
<glyph unicode="&#xe91c;" glyph-name="plus" d="M288 480h-64v-224h-224v-64h224v-224h64v224h224v64h-224z" />
<glyph unicode="&#xe91d;" glyph-name="easy-off" horiz-adv-x="393" d="M183.466 185.817v-168.178c9.394 5.611 21.136 10.218 35.113 13.932 6.832 1.815 13.843-2.252 15.657-9.084s-2.252-13.842-9.084-15.658c-25.39-6.745-39.017-15.83-42.344-25.81-3.89-11.669-20.397-11.669-24.286 0-9.256 27.767-56.596 48.807-143.044 59.613-6.405 0.8-11.213 6.246-11.213 12.701v204.8c0 7.069 5.731 12.8 12.8 12.8 56.068 0 106.968-20.832 152.239-62.072 28.13 31.084 79.286 51.392 153.151 61.944 7.711 1.101 14.61-4.882 14.61-12.672v-34.8c0-7.069-5.731-12.8-12.8-12.8s-12.8 5.731-12.8 12.8v19.856c-65.488-11.058-108.045-30.533-128-57.373zM157.867 184.498c-38.709 37.339-81.24 57.354-128 60.419v-180.368c59.72-8.373 102.479-22.038 128-41.944v161.893zM307.2 189.866c47.13 0 85.334-38.204 85.334-85.334s-38.207-85.334-85.334-85.334c-47.13 0-85.334 38.204-85.334 85.334s38.204 85.334 85.334 85.334zM350.902 78.454c-8.187 7.712-16.442 15.348-26.082 24.288 10.053 9.487 18.312 17.166 26.442 24.988 6.269 6.034 7.914 13.079 1.257 19.43-6.125 5.837-12.93 4.355-18.595-1.587-7.803-8.183-15.449-16.499-25.041-26.734-9.271 9.938-16.7 17.933-24.168 25.899-5.808 6.197-12.743 8.796-19.459 2.455-7.247-6.863-4.738-14.259 1.976-20.245 8.37-7.454 17.055-14.571 26.686-22.724-11.195-10.638-19.118-18.173-27.050-25.703-6.226-5.904-8.499-12.863-2.101-19.449s13.458-4.743 19.439 1.525c7.774 8.144 15.439 16.399 24.231 25.751l24.979-25.708c6.029-6.202 12.983-8.202 19.459-1.635s4.293 13.559-1.971 19.449zM283.423 284.744c-4.155-5.72-12.159-6.988-17.879-2.833s-6.988 12.16-2.833 17.879c13.647 18.786 14.623 21.566 14.623 43.677 0 58.911-47.757 106.666-106.666 106.666s-106.666-47.757-106.666-106.666c0-19.791 1.715-24.515 14.88-44.045 3.951-5.862 2.403-13.817-3.459-17.768s-13.817-2.403-17.769 3.459c-15.81 23.453-19.253 32.937-19.253 58.355 0 73.049 59.218 132.267 132.267 132.267s132.267-59.218 132.267-132.267c0-27.74-2.8-35.72-19.511-58.723zM235.159 294.321c-36.972-36.972-101.26-36.972-138.232 0-3.997 3.997-3.997 12.030 0 16.027 1.999 1.998 6.011 4.675 8.508 4.675s4.996-0.999 6.995-2.998c28.978-28.978 76.442-28.978 105.919 0 3.997 3.997 10.81 2.32 14.806-1.677s6-12.030 2.004-16.027zM124.523 367.486c-12.219 0-22.123 9.905-22.123 22.124s9.905 22.124 22.124 22.124c12.219 0 22.124-9.905 22.124-22.124s-9.905-22.124-22.124-22.124zM213.018 367.486c-12.219 0-22.124 9.905-22.124 22.124s9.905 22.124 22.124 22.124c12.219 0 22.124-9.905 22.124-22.124s-9.905-22.124-22.124-22.124z" />
<glyph unicode="&#xe91e;" glyph-name="easy-on" horiz-adv-x="342" d="M157.867 184.498c-38.709 37.339-81.24 57.354-128 60.419v-180.368c59.72-8.373 102.479-22.038 128-41.944v161.893zM183.466 21.174c25.59 17.798 68.409 26.688 128 27.778v194.238c-65.488-11.058-108.045-30.533-128-57.373v-164.643zM283.423 284.744c-4.155-5.72-12.159-6.988-17.879-2.833s-6.988 12.16-2.833 17.879c13.647 18.786 14.623 21.566 14.623 43.677 0 58.911-47.757 106.666-106.666 106.666s-106.666-47.757-106.666-106.666c0-19.791 1.715-24.515 14.88-44.045 3.951-5.862 2.403-13.817-3.459-17.768s-13.817-2.403-17.769 3.459c-15.81 23.453-19.253 32.937-19.253 58.355 0 73.049 59.218 132.267 132.267 132.267s132.267-59.218 132.267-132.267c0-27.74-2.8-35.72-19.511-58.723zM235.159 294.321c-36.972-36.972-101.26-36.972-138.232 0-3.997 3.997-3.997 12.030 0 16.027 1.999 1.998 6.011 4.675 8.508 4.675s4.996-0.999 6.995-2.998c28.978-28.978 76.442-28.978 105.919 0 3.997 3.997 10.81 2.32 14.806-1.677s6-12.030 2.004-16.027zM124.523 367.486c-12.219 0-22.123 9.905-22.123 22.124s9.905 22.124 22.124 22.124c12.219 0 22.124-9.905 22.124-22.124s-9.905-22.124-22.124-22.124zM213.018 367.486c-12.219 0-22.124 9.905-22.124 22.124s9.905 22.124 22.124 22.124c12.219 0 22.124-9.905 22.124-22.124s-9.905-22.124-22.124-22.124zM322.457 270.804c7.711 1.101 14.61-4.882 14.61-12.671v-221.867c0-7.069-5.731-12.8-12.8-12.8-85.9 0-132.483-15.527-141.457-42.447-3.89-11.67-20.397-11.67-24.286 0-9.256 27.767-56.596 48.807-143.044 59.613-6.405 0.8-11.213 6.246-11.213 12.701v204.8c0 7.069 5.731 12.8 12.8 12.8 56.068 0 106.968-20.832 152.239-62.072 28.13 31.084 79.286 51.392 153.15 61.943z" />
<glyph unicode="&#xe91f;" glyph-name="speaker" d="M0 335.457h85.364l189.321 144.543v-512l-189.174 144.543h-85.51v222.913zM39.492 302.365v-154.596h40.704v154.596h-40.704zM235.194 31.988v381.891l-117.64-99.708v-178.208l117.64-103.974zM349.183 87.656l-26.371 26.885c60.601 60.62 60.601 158.886 0 219.507l26.371 26.224c76.126-80.804 71.86-189.604 0-272.615zM394.473 419.002l26.811 26.517c119.419-129.787 121.553-308.987 0-443.041l-26.811 26.591c107.486 107.756 107.486 282.176 0 389.932z" />
</font>
</defs>
</svg>
